<?xml version="1.0" encoding="UTF-8"?>
<svg width="28.523mm" height="20mm" clip-rule="evenodd" fill-rule="evenodd" image-rendering="optimizeQuality" shape-rendering="geometricPrecision" text-rendering="geometricPrecision" version="1.1" viewBox="0 0 28.523 20" xml:space="preserve" xmlns="http://www.w3.org/2000/svg" xmlns:xlink="http://www.w3.org/1999/xlink">
 <!--Creator: Logaster--><defs><font id="Panton Black Caps" horiz-adv-x="618" horiz-origin-x="0" horiz-origin-y="0" vert-adv-y="1024" vert-origin-x="512" vert-origin-y="768"><font-face font-family="Panton Black Caps" alphabetic="0" ascent="940" descent="-260" panose-1="0 0 5 0 0 0 0 0 0 0" units-per-em="1000"/>
<missing-glyph d="M638 42Q638 19 629 10T595 0H96Q72 0 63 9T53 42V668Q53 691 62 700T96 710H595Q619 710 628 701T638 668V42ZM440 175V535H251V175H440Z" horiz-adv-x="686"/>
<glyph glyph-name="space" horiz-adv-x="180" unicode=" "/>
<glyph d="M574 613T574 518T496 372Q595 320 595 204Q595 99 528 42T325 -15Q94 -15 30 160Q15 200 57 214L155 249Q178 257 189 252T209 222Q233 157 310 157Q388 157 388 216T322 275H261Q237 275 228 284T219 317V400Q219 424 228 433T261 443H305Q373 443 373 498T305 553Q265 553 245 539T211 488Q203 465 191 459T157 461L59 496Q37 503 31 515T32 550Q98 725 327 725Q445 725 509 669Z" glyph-name="three" horiz-adv-x="626" unicode="3"/>
<glyph d="M684 41Q699 0 655 0H547Q509 0 494 9T472 42L449 114H233L210 42Q202 18 188 9T137 0H32Q-10 0 5 41L235 675Q242 696 253 703T287 710H401Q423 710 434 703T453 677L684 41ZM367 388Q358 418 353 453T346 508L345 528H335Q336 456 316 389L279 271H404L367 388Z" glyph-name="A" horiz-adv-x="688" unicode="A"/>
<glyph d="M512 710Q536 710 545 701T555 668V578Q555 554 546 545T512 535H248V446H459Q483 446 492 437T502 404V314Q502 290 493 281T459 271H248V175H521Q544 175 553 166T563 133V42Q563 19 554 10T521 0H93Q69 0 60 9T50 42V668Q50 691 59 700T93 710H512Z" glyph-name="E" horiz-adv-x="588" unicode="E"/>
<glyph d="M732 711Q756 711 765 702T775 669V41Q775 18 766 9T732 0H623Q599 0 590 9T581 41V184Q581 292 625 446H614Q606 420 584 365T547 281L491 168Q482 152 472 146T443 139H376Q356 139 346 145T328 168L269 281Q238 337 207 446H197Q238 282 238 183V41Q238 18 229 9T195 0H93Q69 0 60 9T50 41V669Q50 693 59 702T93 711H187Q213 711 224 705T246 680L411 356L576 679Q586 699 596 705T632 711H732Z" glyph-name="M" horiz-adv-x="825" unicode="M"/>
<glyph d="M28 501Q28 602 106 663T325 725Q435 725 502 691T604 585Q623 546 580 529L480 486Q460 477 449 481T426 507Q400 559 325 559Q230 559 230 507Q230 478 262 466T361 446Q405 440 434 434T503 412T568 372T609 308T627 213Q627 106 541 46T317 -15Q83 -15 26 140Q18 163 24 175T53 195L147 229Q169 237 182 233T206 207Q233 154 319 154Q426 154 426 211Q426 238 397 250T309 270Q281 274 268 276T227 283T184 294T144 309T106 330T75 358T50 395T35 442T28 501Z" glyph-name="S" horiz-adv-x="647" unicode="S"/>
<glyph d="M549 710Q573 710 582 701T592 668V578Q592 554 583 545T549 535H401V42Q401 19 392 10T358 0H245Q221 0 212 9T203 42V535H54Q30 535 21 544T12 578V668Q12 691 21 700T54 710H549Z" glyph-name="T" horiz-adv-x="603" unicode="T"/>
<glyph d="M646 710Q668 710 673 698T667 668L436 275V42Q436 19 427 10T394 0H281Q257 0 248 9T238 42V275L8 668Q-3 685 2 697T29 710H149Q189 710 203 704T232 673L339 469L449 673Q463 698 477 704T531 710H646Z" glyph-name="Y" horiz-adv-x="675" unicode="Y"/>
</font><font id="Lato Bold" horiz-adv-x="1127" horiz-origin-x="0" horiz-origin-y="0" vert-adv-y="1024" vert-origin-x="512" vert-origin-y="768"><font-face font-family="Lato Bold" alphabetic="0" ascent="1974" descent="-426" panose-1="2 15 5 2 2 2 4 3 2 3" units-per-em="2000"/>
<missing-glyph d="M239 1147Q296 1193 368 1224T540 1256Q610 1256 666 1237T761 1184T820 1101T841 993Q841 938 827 899T792 830T746 779T698 740T658 703T635 663L613 567H444L427 681Q421 718 432 744T464 792T510 832T558 871T596 917T612 978Q612 1013 588 1035T518 1057Q482 1057 458 1050T415 1035T384 1020T355 1013Q321 1013 305 1042L239 1147ZM385 313Q385 341 395 366T424 409T467 438T521 449Q549 449 573 439T616 410T645 366T656 313Q656 284 646 260T617 217T574 189T521 178Q492 178 467 188T424 217T396 259T385 313ZM42 1446H1052V0H42V1446ZM107 69H980V1378H107V69Z" horiz-adv-x="1094"/>
<glyph glyph-name="null" horiz-adv-x="486" unicode=" "/>
<glyph d="M925 546L749 1027Q736 1059 722 1103T694 1198Q681 1147 667 1103T640 1025L465 546H925ZM1400 0H1192Q1157 0 1135 17T1102 61L994 356H395L287 61Q279 38 256 19T199 0H-11L558 1446H832L1400 0Z" glyph-name="null" horiz-adv-x="1389" unicode="A"/>
<glyph d="M1154 341Q1176 341 1193 324L1299 209Q1211 100 1083 42T774 -16Q613 -16 485 39T265 192T126 426T77 723Q77 886 129 1021T275 1255T501 1407T791 1462Q949 1462 1071 1410T1280 1274L1190 1149Q1182 1137 1170 1128T1135 1119Q1120 1119 1104 1127T1069 1148T1025 1176T967 1203T891 1224T790 1233Q693 1233 613 1199T474 1099T384 939T352 723Q352 601 386 506T480 346T619 247T791 212Q846 212 890 218T972 237T1043 270T1110 321Q1120 330 1131 335T1154 341Z" glyph-name="null" horiz-adv-x="1323" unicode="C"/>
<glyph d="M431 1232V831H937V624H431V215H1073V0H161V1446H1073V1232H431Z" glyph-name="null" horiz-adv-x="1150" unicode="E"/>
<glyph d="M431 0H161V1446H431V0Z" glyph-name="null" horiz-adv-x="593" unicode="I"/>
<glyph d="M1008 222V0H161V1446H430V222H1008Z" glyph-name="null" horiz-adv-x="1039" unicode="L"/>
<glyph d="M1729 1446V0H1492V934Q1492 990 1498 1055L1061 234Q1030 175 966 175H928Q864 175 833 234L391 1058Q394 1025 396 993T398 934V0H161V1446H364Q382 1446 395 1445T418 1440T437 1427T454 1403L887 600Q904 568 918 534T947 464Q961 501 976 535T1008 602L1435 1403Q1443 1418 1452 1427T1471 1440T1495 1445T1526 1446H1729Z" glyph-name="null" horiz-adv-x="1890" unicode="M"/>
<glyph d="M631 719Q705 719 760 737T851 790T906 874T924 985Q924 1043 906 1090T852 1170T761 1220T631 1238H430V719H631ZM631 1446Q776 1446 882 1412T1057 1317T1159 1171T1193 985Q1193 880 1158 793T1053 642T878 544T631 509H430V0H161V1446H631Z" glyph-name="null" horiz-adv-x="1238" unicode="P"/>
<glyph d="M931 1183Q919 1162 906 1153T872 1143Q851 1143 827 1158T768 1193T689 1227T581 1243Q525 1243 483 1230T413 1192T370 1135T356 1061Q356 1010 384 976T460 918T567 875T690 835T813 785T920 713T995 606T1024 453Q1024 355 991 270T893 121T735 21T522 -16Q453 -16 386 -3T258 36T142 96T46 174L125 303Q135 317 151 326T185 336Q210 336 239 316T308 270T401 225T530 204Q645 204 708 258T771 415Q771 472 743 508T667 568T560 610T438 647T316 695T209 768T134 880T105 1047Q105 1126 136 1201T228 1334T376 1427T578 1462Q706 1462 814 1422T998 1310L931 1183Z" glyph-name="null" horiz-adv-x="1097" unicode="S"/>
<glyph d="M1171 1225H735V0H466V1225H30V1446H1171V1225Z" glyph-name="null" horiz-adv-x="1200" unicode="T"/>
<glyph d="M1336 0H1068Q1040 0 1024 14T997 46L662 601Q654 576 643 558L322 46Q310 29 295 15T254 0H3L483 744L22 1446H290Q318 1446 330 1439T354 1414L683 884Q693 909 707 934L1009 1409Q1020 1428 1033 1437T1066 1446H1323L858 755L1336 0Z" glyph-name="null" horiz-adv-x="1341" unicode="X"/>
<glyph d="M664 438Q557 433 484 420T367 385T304 336T285 275Q285 210 323 182T424 154Q500 154 555 181T664 265V438ZM98 883Q275 1045 524 1045Q614 1045 685 1016T805 934T879 808T905 648V0H793Q758 0 739 10T709 53L687 127Q648 92 611 66T534 21T449 -6T348 -16Q283 -16 228 1T133 54T71 141T49 262Q49 301 62 339T104 413T181 479T296 533T456 570T664 588V648Q664 751 620 800T493 850Q433 850 394 836T324 805T270 773T215 759Q189 759 171 772T142 804L98 883Z" glyph-name="null" horiz-adv-x="1015" unicode="a"/>
<glyph d="M378 1026V0H130V1026H378ZM412 1325Q412 1293 399 1265T365 1216T314 1183T252 1170Q220 1170 192 1182T142 1216T109 1265T96 1325Q96 1358 108 1387T142 1437T191 1470T252 1483Q285 1483 314 1471T364 1437T399 1387T412 1325Z" glyph-name="null" horiz-adv-x="508" unicode="i"/>
<glyph d="M122 0V1026H273Q321 1026 336 981L352 905Q379 935 408 960T471 1003T543 1031T628 1042Q725 1042 787 990T881 850Q905 901 941 937T1020 997T1111 1031T1209 1042Q1294 1042 1360 1016T1471 940T1539 818T1563 653V0H1316V653Q1316 751 1273 800T1147 850Q1109 850 1077 837T1020 800T981 738T967 653V0H719V653Q719 756 678 803T556 850Q502 850 456 824T369 751V0H122Z" glyph-name="null" horiz-adv-x="1675" unicode="m"/>
<glyph d="M353 900Q384 931 418 957T491 1002T574 1031T670 1042Q754 1042 819 1014T927 934T993 811T1016 653V0H769V653Q769 747 726 798T595 850Q531 850 475 821T369 742V0H122V1026H273Q321 1026 336 981L353 900Z" glyph-name="null" horiz-adv-x="1128" unicode="n"/>
<glyph d="M576 1042Q690 1042 783 1005T943 900T1046 734T1082 515Q1082 393 1046 295T944 128T784 22T576 -15Q461 -15 367 22T207 128T104 295T67 515Q67 636 103 734T206 900T367 1005T576 1042ZM576 175Q704 175 765 261T827 513Q827 679 766 766T576 853Q446 853 384 766T321 513Q321 348 383 262T576 175Z" glyph-name="null" horiz-adv-x="1149" unicode="o"/>
<glyph d="M369 266Q411 215 460 194T568 173Q624 173 669 194T745 258T794 366T811 521Q811 611 797 673T755 775T690 832T602 850Q525 850 471 818T369 726V266ZM356 886Q419 957 499 1001T687 1045Q771 1045 840 1010T960 909T1038 745T1066 521Q1066 406 1035 308T947 138T808 26T625 -15Q539 -15 478 11T369 85V-335H122V1026H273Q321 1026 336 981L356 886Z" glyph-name="null" horiz-adv-x="1136" unicode="p"/>
<glyph d="M748 826Q738 810 727 804T699 797Q681 797 661 807T613 829T552 852T470 862Q397 862 356 831T314 750Q314 717 335 695T392 655T473 625T564 595T656 559T736 507T793 431T815 325Q815 251 789 189T710 81T582 10T405 -16Q352 -16 302 -7T205 20T119 60T49 110L106 204Q117 221 132 230T170 239Q193 239 213 226T261 198T324 170T417 157Q461 157 492 167T544 195T574 234T584 281Q584 317 563 340T506 380T425 410T332 440T239 477T158 532T101 613T79 729Q79 792 104 849T177 948T298 1016T466 1042Q572 1042 659 1007T804 915L748 826Z" glyph-name="null" horiz-adv-x="879" unicode="s"/>
<glyph d="M464 -16Q330 -16 259 59T187 268V841H82Q62 841 48 854T34 893V991L199 1018L251 1298Q256 1318 270 1329T306 1340H434V1017H708V841H434V285Q434 237 457 210T522 183Q545 183 560 188T587 200T608 211T626 217Q637 217 644 212T659 195L733 75Q679 30 609 7T464 -16Z" glyph-name="null" horiz-adv-x="744" unicode="t"/>
<glyph d="M1054 1026L495 -282Q484 -308 467 -321T413 -335H229L421 77L6 1026H223Q252 1026 268 1012T293 980L511 448Q522 421 529 394T544 339Q553 367 562 394T582 449L788 980Q796 1000 814 1013T856 1026H1054Z" glyph-name="null" horiz-adv-x="1055" unicode="y"/>
</font><font id="Lato Light" horiz-adv-x="1084" horiz-origin-x="0" horiz-origin-y="0" vert-adv-y="1024" vert-origin-x="512" vert-origin-y="768"><font-face font-family="Lato Light" alphabetic="0" ascent="1974" descent="-426" panose-1="2 15 5 2 2 2 4 3 2 3" units-per-em="2000"/>
<missing-glyph d="M262 1134Q283 1154 308 1172T364 1204T429 1226T507 1235Q561 1235 607 1220T688 1175T742 1104T762 1010Q762 955 746 916T705 847T651 795T597 752T553 713T532 668L522 554H457L451 676Q449 707 465 730T505 775T559 817T614 864T656 924T673 1005Q673 1041 659 1069T622 1116T567 1146T500 1157Q454 1157 421 1146T365 1120T329 1094T308 1082Q294 1082 287 1093L262 1134ZM410 265Q410 297 432 320T487 343Q519 343 541 320T563 265Q563 233 541 210T487 187Q454 187 432 210T410 265ZM47 1415H978V0H47V1415ZM82 36H941V1379H82V36Z" horiz-adv-x="1025"/>
<glyph glyph-name="space" horiz-adv-x="543" unicode=" "/>
<glyph d="M1050 634H619V181H541V634H111V707H541V1158H619V707H1050V634Z" glyph-name="plus" horiz-adv-x="1160" unicode="+"/>
<glyph d="M144 -238Q139 -234 138 -230T136 -221Q136 -215 144 -205Q153 -195 168 -176T200 -130T230 -70T248 1Q233 -4 217 -4Q180 -4 157 21T133 85Q133 120 157 145T220 170Q263 170 286 141T310 63Q310 22 300 -20T269 -104T221 -183T159 -253L144 -238Z" glyph-name="comma" horiz-adv-x="438" unicode=","/>
<glyph d="M141 77Q141 96 148 113T167 142T196 162T233 170Q252 170 269 163T298 143T318 113T326 77Q326 57 319 41T299 12T269 -8T233 -15Q194 -15 168 11T141 77Z" glyph-name="period" horiz-adv-x="467" unicode="."/>
<glyph d="M1087 708Q1087 522 1047 386T938 161T777 29T579 -15Q474 -15 382 28T221 161T113 386T73 708Q73 894 112 1030T221 1255T382 1387T579 1431Q684 1431 776 1388T938 1255T1047 1030T1087 708ZM987 708Q987 880 954 1002T866 1201T736 1315T579 1351Q497 1351 423 1315T293 1202T204 1002T171 708Q171 535 204 414T293 215T423 102T579 66Q661 66 735 101T865 214T954 413T987 708Z" glyph-name="zero" horiz-adv-x="1160" unicode="0"/>
<glyph d="M997 74V0H267V74H592V1222Q592 1256 595 1294L283 1017Q269 1005 255 1008T233 1020L204 1060L613 1421H688V74H997Z" glyph-name="one" horiz-adv-x="1160" unicode="1"/>
<glyph d="M994 90Q1010 90 1019 81T1028 56V0H115V34Q115 45 120 56T135 76L618 565Q678 626 729 683T817 798T876 917T897 1047Q897 1125 871 1182T802 1277T702 1332T584 1350Q517 1350 461 1330T361 1273T289 1186T249 1075Q242 1053 231 1046T199 1041L150 1049Q163 1140 200 1211T294 1331T426 1405T588 1431Q669 1431 742 1408T872 1337T962 1218T995 1050Q995 970 971 902T904 770T807 648T690 526L247 74Q279 82 313 86T383 90H994Z" glyph-name="two" horiz-adv-x="1160" unicode="2"/>
<glyph d="M156 1049Q169 1140 206 1211T300 1331T432 1405T594 1431Q675 1431 747 1409T873 1341T959 1229T991 1074Q991 1005 970 950T912 852T823 782T712 738Q868 709 947 618T1027 389Q1027 302 992 228T896 99T752 15T572 -16Q451 -16 371 16T238 101T157 217T110 346L148 362Q164 369 181 366T207 343Q212 331 220 306T245 249T286 186T350 126T443 82T571 65Q661 65 728 95T841 171T909 275T932 387Q932 452 912 508T843 604T717 668T523 692V761Q615 763 685 785T802 847T873 940T897 1059Q897 1134 872 1189T805 1280T707 1333T590 1350Q523 1350 466 1330T366 1273T293 1186T253 1075Q247 1053 236 1046T205 1041L156 1049Z" glyph-name="three" horiz-adv-x="1160" unicode="3"/>
<glyph d="M753 482V1223Q753 1240 754 1260T758 1301L146 482H753ZM1096 482V430Q1096 419 1090 413T1069 406H837V0H753V406H84Q69 406 61 412T50 430L41 477L752 1417H837V482H1096Z" glyph-name="four" horiz-adv-x="1160" unicode="4"/>
<glyph d="M310 855Q377 872 436 879T550 887Q661 887 745 856T885 768T970 633T999 463Q999 351 961 263T855 112T699 17T510 -16Q452 -16 399 -6T299 22T213 63T143 110L172 149Q181 164 200 164Q213 164 237 149T300 116T392 83T515 68Q597 68 668 94T791 171T872 294T902 461Q902 537 880 601T812 710T697 781T533 807Q476 807 412 798T276 769L215 788L325 1415H962V1374Q962 1354 949 1341T906 1327H394L310 855Z" glyph-name="five" horiz-adv-x="1160" unicode="5"/>
<glyph d="M579 63Q665 63 734 90T851 164T926 277T952 420Q952 501 927 566T855 677T744 747T602 772Q514 772 445 742T327 663T254 552T229 427Q229 348 253 281T323 166T433 90T579 63ZM415 864Q384 823 358 787T311 716Q370 777 451 811T628 846Q719 846 796 816T928 732T1015 600T1047 426Q1047 330 1013 249T917 109T769 17T580 -16Q481 -16 399 16T259 108T168 254T136 450Q136 533 178 637T316 872L702 1392Q719 1415 753 1415H837L415 864Z" glyph-name="six" horiz-adv-x="1160" unicode="6"/>
<glyph d="M1067 1415V1372Q1067 1355 1063 1343T1054 1321L406 36Q398 20 385 10T349 0H283L937 1280Q950 1306 968 1327H152Q141 1327 133 1335T125 1354V1415H1067Z" glyph-name="seven" horiz-adv-x="1160" unicode="7"/>
<glyph d="M580 60Q661 60 727 82T842 146T916 246T942 375Q942 468 908 530T821 629T704 681T580 697Q520 697 456 682T339 629T252 530T218 375Q218 304 244 246T317 147T432 83T580 60ZM264 1069Q264 1012 282 959T340 865T438 799T580 774Q661 774 720 798T819 864T876 959T895 1069Q895 1130 874 1182T813 1274T714 1335T580 1357Q505 1357 446 1335T347 1274T285 1183T264 1069ZM731 739Q799 724 855 694T953 619T1017 513T1040 374Q1040 284 1006 212T912 89T767 11T580 -16Q478 -16 394 11T249 89T154 212T120 374Q120 452 143 513T206 619T303 694T428 739Q366 757 318 788T238 862T188 957T171 1070Q171 1145 199 1211T281 1326T409 1403T580 1431Q674 1431 749 1403T878 1326T960 1211T989 1070Q989 1010 972 958T922 863T841 789T731 739Z" glyph-name="eight" horiz-adv-x="1160" unicode="8"/>
<glyph d="M559 676Q644 676 711 705T823 781T893 886T917 1005Q917 1082 892 1146T822 1255T716 1326T581 1352Q502 1352 437 1327T326 1257T253 1150T227 1012Q227 934 250 872T317 766T422 699T559 676ZM748 584Q778 627 804 664T851 738Q793 673 710 638T533 602Q446 602 373 630T245 712T161 839T131 1006Q131 1097 165 1174T259 1309T401 1398T582 1431Q676 1431 754 1399T889 1309T977 1169T1009 987Q1009 932 998 882T964 782T909 680T836 567L465 23Q450 0 416 0H329L748 584Z" glyph-name="nine" horiz-adv-x="1160" unicode="9"/>
<glyph d="M1086 845Q1062 852 1037 855T977 859Q887 859 814 823T689 727T609 595T580 446Q580 406 590 372T620 312T669 273T739 258Q775 258 813 270T887 313T954 398T1006 535L1086 845ZM1082 541Q1058 449 1059 392T1078 304T1126 262T1192 251Q1249 251 1301 281T1393 366T1456 501T1480 678Q1480 826 1432 936T1300 1120T1105 1229T869 1265Q732 1265 610 1212T395 1064T248 838T193 549Q193 372 249 238T403 13T629 -124T905 -171Q1053 -171 1175 -137T1398 -38Q1410 -30 1420 -33T1435 -47L1450 -84Q1338 -158 1204 -198T905 -238Q740 -238 597 -186T348 -33T181 214T120 549Q120 716 179 859T340 1107T578 1271T869 1331Q1003 1331 1126 1290T1343 1166T1494 961T1551 678Q1551 569 1522 479T1443 325T1324 224T1179 188Q1091 188 1047 234T1000 369Q944 275 874 234T721 192Q665 192 624 211T556 265T516 345T502 444Q502 529 534 614T629 768T783 880T990 923Q1043 923 1089 914T1173 888L1082 541Z" glyph-name="at" horiz-adv-x="1657" unicode="@"/>
<glyph d="M972 514L684 1229Q669 1264 655 1313Q649 1289 642 1268T627 1228L339 514H972ZM1285 0H1206Q1192 0 1183 7T1169 27L1003 438H308L142 27Q138 16 128 8T104 0H26L605 1415H706L1285 0Z" glyph-name="A" horiz-adv-x="1311" unicode="A"/>
<glyph d="M1230 238Q1240 238 1247 231L1287 188Q1243 141 1192 104T1079 40T944 -1T782 -16Q635 -16 513 35T302 181T166 410T117 708Q117 869 167 1002T307 1230T523 1378T801 1431Q946 1431 1058 1386T1262 1259L1231 1214Q1223 1202 1206 1202Q1194 1202 1167 1224T1092 1272T973 1321T801 1343Q673 1343 567 1299T384 1173T264 973T221 708Q221 558 264 440T384 241T563 116T787 72Q863 72 922 82T1032 112T1125 161T1210 229Q1215 233 1220 235T1230 238Z" glyph-name="C" horiz-adv-x="1352" unicode="C"/>
<glyph d="M312 1330V735H957V650H312V0H209V1415H1057V1330H312Z" glyph-name="F" horiz-adv-x="1129" unicode="F"/>
<glyph d="M896 1243Q887 1226 870 1226Q857 1226 837 1244T781 1285T694 1327T564 1346Q487 1346 429 1324T331 1264T271 1176T250 1071Q250 999 280 952T361 872T474 817T605 772T735 724T849 657T929 559T960 413Q960 324 930 246T841 109T699 18T507 -16Q367 -16 266 33T89 169L117 213Q129 228 145 228Q154 228 168 216T202 187T250 149T315 111T400 81T509 69Q593 69 659 94T770 164T840 268T864 398Q864 473 834 521T753 602T640 657T509 700T379 747T265 813T185 914T154 1066Q154 1137 181 1203T260 1319T388 1400T563 1431Q673 1431 760 1396T920 1289L896 1243Z" glyph-name="S" horiz-adv-x="1070" unicode="S"/>
<glyph d="M1129 1328H632V0H529V1328H29V1415H1129V1328Z" glyph-name="T" horiz-adv-x="1158" unicode="T"/>
<glyph d="M721 481Q579 476 477 459T308 411T209 340T177 245Q177 195 193 159T237 99T301 64T376 53Q434 53 482 65T572 100T650 154T721 221V481ZM136 854Q214 932 300 972T495 1012Q575 1012 635 987T734 914T794 799T814 648V0H776Q746 0 739 28L725 156Q684 116 644 84T559 30T464 -4T352 -16Q301 -16 253 -1T168 45T108 124T85 241Q85 304 121 358T234 452T431 516T721 544V648Q721 786 662 860T485 935Q413 935 363 915T277 871T220 827T183 807Q172 807 165 812T153 825L136 854Z" glyph-name="a" horiz-adv-x="968" unicode="a"/>
<glyph d="M833 862Q828 857 824 854T811 850Q801 850 784 863T738 893T666 922T560 936Q474 936 408 906T295 818T226 680T202 498Q202 393 226 312T296 176T405 91T547 62Q619 62 667 79T747 116T797 153T827 170Q839 170 847 160L872 128Q849 98 814 72T735 27T640 -2T532 -13Q437 -13 359 21T224 121T136 282T104 498Q104 612 134 706T222 868T363 973T555 1011Q652 1011 727 980T858 896L833 862Z" glyph-name="c" horiz-adv-x="943" unicode="c"/>
<glyph d="M862 598Q862 678 840 741T776 849T679 916T554 940Q477 940 416 916T311 847T239 739T203 598H862ZM198 537V518Q198 406 224 321T298 179T414 92T566 63Q641 63 696 79T788 116T848 153T880 170Q893 170 900 160L926 128Q902 98 863 72T775 28T671 -2T559 -13Q457 -13 373 22T229 126T137 292T104 518Q104 625 134 715T222 871T363 974T553 1011Q637 1011 709 982T834 898T917 761T948 575Q948 553 942 545T922 537H198Z" glyph-name="e" horiz-adv-x="1043" unicode="e"/>
<glyph d="M223 0V891L83 900Q55 903 55 925V964H223V1090Q223 1175 245 1239T307 1347T403 1411T527 1433Q558 1433 589 1428T646 1412L643 1366Q641 1357 635 1355T616 1352T585 1355T541 1358Q492 1358 451 1344T379 1297T333 1214T316 1087V964H639V893H319V0H223Z" glyph-name="f" horiz-adv-x="681" unicode="f"/>
<glyph d="M260 827Q329 911 417 961T616 1011Q698 1011 760 985T864 910T926 792T947 636V0H851V636Q851 776 787 855T592 935Q495 935 411 886T260 748V0H164V1455H260V827Z" glyph-name="h" horiz-adv-x="1100" unicode="h"/>
<glyph d="M270 995V0H175V995H270ZM311 1338Q311 1320 304 1305T284 1277T256 1258T222 1251Q204 1251 188 1258T160 1277T141 1304T134 1338Q134 1356 141 1372T160 1401T188 1420T222 1427Q240 1427 256 1420T284 1401T303 1373T311 1338Z" glyph-name="i" horiz-adv-x="445" unicode="i"/>
<glyph d="M269 1455V0H173V1455H269Z" glyph-name="l" horiz-adv-x="442" unicode="l"/>
<glyph d="M164 0V995H217Q242 995 246 970L255 826Q313 909 388 960T557 1011Q666 1011 731 948T820 773Q838 834 870 879T945 953T1036 997T1138 1011Q1212 1011 1271 987T1371 914T1434 796T1456 636V0H1361V636Q1361 782 1298 858T1118 935Q1066 935 1019 916T935 860T877 766T855 636V0H759V636Q759 781 702 858T533 935Q452 935 383 887T260 754V0H164Z" glyph-name="m" horiz-adv-x="1610" unicode="m"/>
<glyph d="M255 821Q324 907 414 959T616 1011Q698 1011 760 985T864 910T926 792T947 636V0H851V636Q851 776 787 855T592 935Q495 935 411 886T260 748V0H164V995H217Q242 995 246 970L255 821Z" glyph-name="n" horiz-adv-x="1100" unicode="n"/>
<glyph d="M558 1011Q665 1011 749 975T892 871T980 710T1011 498Q1011 381 981 287T892 126T750 23T558 -13Q451 -13 367 23T224 126T135 287T104 498Q104 615 134 709T223 871T366 974T558 1011ZM558 62Q647 62 713 92T824 180T891 317T913 498Q913 597 891 678T825 816T714 905T558 936Q469 936 403 905T292 817T225 678T202 498Q202 398 224 318T291 180T402 93T558 62Z" glyph-name="o" horiz-adv-x="1116" unicode="o"/>
<glyph d="M260 217Q289 174 320 145T387 97T461 70T545 62Q633 62 699 94T809 184T876 324T899 504Q899 726 817 830T582 935Q483 935 403 884T260 742V217ZM256 816Q322 906 410 959T609 1012Q792 1012 894 885T997 504Q997 395 969 301T885 137T749 27T563 -13Q462 -13 388 24T260 133V-352H164V995H217Q242 995 246 970L256 816Z" glyph-name="p" horiz-adv-x="1103" unicode="p"/>
<glyph d="M711 872Q703 858 688 858Q677 858 660 870T615 898T544 926T442 939Q388 939 344 924T268 882T219 822T202 749Q202 702 226 671T288 618T377 580T478 548T580 513T668 464T731 393T755 291Q755 226 732 170T665 73T555 8T406 -16Q301 -16 225 17T89 105L111 139Q116 147 122 151T140 155Q153 155 171 139T221 105T297 70T410 54Q473 54 521 71T601 119T649 189T666 275Q666 325 642 358T579 414T491 453T389 485T288 520T199 568T136 638T112 742Q112 795 135 844T200 930T304 989T441 1011Q532 1011 602 985T731 905L711 872Z" glyph-name="s" horiz-adv-x="850" unicode="s"/>
<glyph d="M436 -16Q335 -16 279 40T222 213V893H79Q68 893 61 899T54 916V953L224 965L248 1321Q250 1330 256 1337T273 1344H318V964H632V893H318V218Q318 177 328 148T357 99T401 71T455 62Q491 62 517 72T562 95T593 118T612 129Q620 129 628 119L654 77Q616 35 558 10T436 -16Z" glyph-name="t" horiz-adv-x="685" unicode="t"/>
<glyph d="M936 995V0H883Q858 0 854 26L845 174Q776 88 686 36T484 -16Q401 -16 339 10T236 85T174 203T153 359V995H249V359Q249 219 313 140T508 60Q605 60 689 109T840 247V995H936Z" glyph-name="u" horiz-adv-x="1099" unicode="u"/>
<glyph d="M963 995L543 0H459L39 995H114Q128 995 137 988T149 971L478 186Q493 142 502 99Q511 142 527 186L857 971Q862 982 870 988T891 995H963Z" glyph-name="v" horiz-adv-x="1003" unicode="v"/>
<glyph d="M1479 995L1147 0H1076Q1059 0 1053 21L781 829Q776 844 772 859T765 889Q760 859 750 829L474 21Q468 0 450 0H382L50 995H122Q136 995 145 988T157 971L408 186Q414 163 419 142T427 99Q433 120 439 141T453 186L719 978Q726 1000 747 1000H786Q808 1000 815 978L1079 186Q1086 163 1092 142T1103 100Q1107 121 1111 142T1123 186L1376 971Q1380 982 1389 988T1410 995H1479Z" glyph-name="w" horiz-adv-x="1529" unicode="w"/>
<glyph d="M894 0H803Q789 0 781 8T768 25L466 466Q462 448 451 431L163 25Q156 16 149 8T129 0H43L405 509L57 995H148Q162 995 169 989T181 975L473 554Q475 562 479 571T489 589L762 974Q768 983 775 989T793 995H880L533 515L894 0Z" glyph-name="x" horiz-adv-x="938" unicode="x"/>
<glyph d="M968 995L396 -320Q390 -334 381 -343T353 -352H285L460 37L39 995H118Q133 995 142 988T154 971L489 197Q495 182 499 167T508 135Q513 151 518 166T530 197L861 971Q866 982 875 988T895 995H968Z" glyph-name="y" horiz-adv-x="1003" unicode="y"/>
</font><font id="Panton Black italic Caps" horiz-adv-x="619" horiz-origin-x="0" horiz-origin-y="0" vert-adv-y="1024" vert-origin-x="512" vert-origin-y="768"><font-face font-family="Panton Black italic Caps" alphabetic="0" ascent="940" descent="-260" panose-1="0 0 5 0 0 0 0 0 0 0" units-per-em="1000"/>
<missing-glyph d="M638 42Q638 19 629 10T595 0H96Q72 0 63 9T53 42V668Q53 691 62 700T96 710H595Q619 710 628 701T638 668V42ZM440 175V535H251V175H440Z" horiz-adv-x="686"/>
<glyph glyph-name="space" horiz-adv-x="182" unicode=" "/>
<glyph d="M638 41Q646 0 601 0H497Q460 0 446 9T430 42L420 114H203L168 42Q156 18 140 9T88 0H-22Q-64 0 -41 41L301 675Q312 696 324 703T359 710H472Q494 710 504 703T519 677L638 41ZM386 388Q383 423 383 454T386 507L389 528H380Q367 456 335 389L278 271H402L386 388Z" glyph-name="A" horiz-adv-x="688" unicode="A"/>
<glyph d="M408 710Q554 710 621 629T664 415L638 265Q615 135 525 68T286 0H40Q16 0 8 9T5 42L115 668Q120 691 130 700T165 710H408ZM468 427Q488 535 371 535H290L226 175H308Q423 175 443 283L468 427Z" glyph-name="D" horiz-adv-x="677" unicode="D"/>
<glyph d="M584 710Q608 710 616 701T620 668L604 578Q600 554 589 545T554 535H290L274 446H485Q509 446 516 437T520 404L504 314Q499 290 489 281T454 271H243L226 175H499Q522 175 529 166T533 133L517 42Q513 19 502 10T467 0H40Q16 0 8 9T5 42L115 668Q120 691 130 700T165 710H584Z" glyph-name="E" horiz-adv-x="588" unicode="E"/>
<glyph d="M584 710Q608 710 616 701T620 668L604 578Q600 554 589 545T554 535H290L269 419H480Q504 419 511 410T515 377L499 287Q495 263 484 254T449 244H239L203 42Q198 19 188 10T153 0H40Q16 0 8 9T5 42L115 668Q120 691 130 700T165 710H584Z" glyph-name="F" horiz-adv-x="579" unicode="F"/>
<glyph d="M116 670Q121 693 131 701T163 710H281Q304 710 311 701T314 670L203 40Q199 18 189 9T156 0H38Q16 0 9 8T5 40L116 670Z" glyph-name="I" horiz-adv-x="300" unicode="I"/>
<glyph d="M278 710Q302 710 310 701T314 668L227 175H467Q491 175 498 166T502 133L486 42Q481 19 471 10T436 0H40Q16 0 9 9T5 42L116 668Q120 691 130 700T165 710H278Z" glyph-name="L" horiz-adv-x="542" unicode="L"/>
<glyph d="M805 711Q829 711 836 702T840 669L730 41Q725 18 715 9T680 0H571Q547 0 540 9T536 41L561 184Q579 291 650 446H640Q599 362 544 281L468 168Q448 139 415 139H350Q330 139 322 145T307 168L269 281Q247 341 235 446H226Q239 282 220 183L196 41Q192 18 181 9T146 0H40Q16 0 9 9T5 41L116 669Q120 693 131 702T166 711H259Q285 711 296 705T313 680L420 352L642 679Q655 699 667 705T704 711H805Z" glyph-name="M" horiz-adv-x="827" unicode="M"/>
<glyph d="M679 710Q703 710 711 701T715 668L604 42Q600 19 589 10T554 0H444Q417 0 407 20L296 257Q274 305 264 348T244 463H236Q244 319 224 205L195 42Q190 19 180 10T145 0H40Q16 0 8 9T5 42L115 668Q120 691 130 700T165 710H279Q308 710 318 690L436 434Q461 381 488 251H496Q485 338 485 378T496 504L525 668Q529 691 539 700T574 710H679Z" glyph-name="N" horiz-adv-x="702" unicode="N"/>
<glyph d="M61 455Q84 585 174 655T413 725Q558 725 626 645T672 433L641 252Q618 123 528 54T289 -15Q143 -15 75 63T29 274L61 455ZM478 454Q486 501 462 525T386 550Q276 550 259 454L224 256Q216 209 240 185T317 160Q426 160 443 256L478 454Z" glyph-name="O" horiz-adv-x="682" unicode="O"/>
<glyph d="M441 710Q558 710 615 638T652 445Q632 329 554 271T355 213H233L203 42Q198 19 188 10T153 0H40Q16 0 8 9T5 42L115 668Q120 691 130 700T165 710H441ZM362 388Q397 388 420 408T450 461Q456 495 440 515T388 535H290L264 388H362Z" glyph-name="P" horiz-adv-x="648" unicode="P"/>
<glyph d="M450 710Q564 710 620 643T656 461Q632 324 513 263Q522 245 532 220L592 49Q599 28 590 14T557 0H449Q410 0 392 11T365 48L325 185Q316 214 305 225T263 236H237L203 42Q198 19 188 10T153 0H40Q16 0 8 9T5 42L115 668Q120 691 130 700T165 710H450ZM451 470Q457 500 443 517T397 535H290L266 403H374Q405 403 425 421T451 470Z" glyph-name="R" horiz-adv-x="661" unicode="R"/>
<glyph d="M620 710Q644 710 652 701T655 668L639 578Q635 554 624 545T589 535H441L354 42Q349 19 339 10T304 0H191Q167 0 159 9T156 42L243 535H94Q70 535 63 544T59 578L75 668Q80 691 90 700T125 710H620Z" glyph-name="T" horiz-adv-x="602" unicode="T"/>
<glyph d="M717 710Q732 710 738 704T743 689T731 668L431 275L391 42Q386 19 375 10T341 0H227Q204 0 197 9T193 42L233 275L73 668Q65 685 72 697T101 710H217Q257 710 271 704T294 673L365 469L512 673Q529 698 545 704T600 710H717Z" glyph-name="Y" horiz-adv-x="673" unicode="Y"/>
</font>
</defs>
</svg>
